Besharam 2013 Hindi Movies DVDRip XviD With Sample ~ ☻rDX☻

Updated: 24-Sep-2014
Besharam 2013 Hindi Movies DVDRip XviD With Sample ~ ☻rDX☻
Download was added 11 months ago in the Movies download category.

Download:
Magnet Link
Category:
Movies
Total Files:
2
Total Size:
702.19 MB
Uploaded:
2013-10-04 17:17:22 GMT
Uploader:
basicssom
Seeders:
1
Leechers:
0
File List Information
Besharam 2013 Hindi Movies DVDRip XviD ~ ☻rDX☻.avi (695.64 MB)
Sample ~ Besharam 2013 Hindi Movies DVDRip XviD ~ ☻rDX☻.avi (6.55 MB)
Description
http://s5.postimg.org/hgeuxszk7/logo.png

Besharam 2013 Hindi Movies DVDRip XviD with Sample ~ ☻rDX☻

Please check SCREEN SHOTS first :
http://myimghosting.serveftp.com/13/BesharamDVD.html
http://myimghost.cwahi.net/BesharamDVD.html

All rDX torrents are Seeding From the 1Gbps Seedbox 24X7
http://s5.postimg.org/vlrndaznr/B_Id_406623_ranbir_kapoor_besharam.jpg
http://s5.postimg.org/xg4hv1mo7/besharam.jpg
http://s5.postimg.org/6498tphxj/Besharam_movie_poster.jpg

Format                                   : AVI
Format/Info                              : Audio Video Interleave
File size                                : 696 MiB
Duration                                 : 2h 16mn
Overall bit rate                         : 713 Kbps
Writing library                          : MPlayer

Video
ID                                       : 0
Format                                   : MPEG-4 Visual
Format profile                           : Advanced Simple@L5
Format settings, BVOP                    : 1
Format settings, QPel                    : No
Format settings, GMC                     : No warppoints
Format settings, Matrix                  : Default (H.263)
Muxing mode                              : Packed bitstream
Codec ID                                 : XVID
Codec ID/Hint                            : XviD
Duration                                 : 2h 16mn
Bit rate                                 : 628 Kbps
Width                                    : 640 pixels
Height                                   : 288 pixels
Display aspect ratio                     : 2.222
Frame rate                               : 23.976 fps
Color space                              : YUV
Chroma subsampling                       : 4:2:0
Bit depth                                : 8 bits
Scan type                                : Progressive
Compression mode                         : Lossy
Bits/(Pixel*Frame)                       : 0.142
Stream size                              : 613 MiB (88%)
Writing library                          : XviD 1.2.1 (UTC 2008-12-04)

Audio
ID                                       : 1
Format                                   : MPEG Audio
Format version                           : Version 1
Format profile                           : Layer 3
Mode                                     : Joint stereo
Mode extension                           : MS Stereo
Codec ID                                 : 55
Codec ID/Hint                            : MP3
Duration                                 : 2h 16mn
Bit rate mode                            : Constant
Bit rate                                 : 80.0 Kbps
Channel(s)                               : 2 channels
Sampling rate                            : 32.0 KHz
Compression mode                         : Lossy
Stream size                              : 78.1 MiB (11%)
Alignment                                : Split accross interleaves
Interleave, duration                     : 500 ms (11.99 video frames)
Interleave, preload duration             : 500 ms
About Magnet Links
Magnet links are easy to use if you have a good BitTorrent client. We recommend using uTorrent because it has full support for these links. Just click on the magnet link of your choice, and your browser should automatically open up your default torrent client and start downloading. It's that easy. For more information and help downloading please view our Help Downloading page.
Share Download
Direct Link

HTML Link

Forum Link
Top Download Searches